Suprhrdina / Superhero Movie (2008)

Příspěvek 28 kvě 2011 10:18

Superhero Movie / Suprhrdina (2008) /1080p /CZ,EN
Obrázek

Obrázek
   Kód: [Zkontroluj linky]
Prohlížet odkazy mohou jen přihlášení uživatelé! Přihlašte se, pokud nemáte svůj uživatelský účet, můžete se zdarma registrovat - zabere to jen pár minut.



Obrázek
GENERAL 1080p CZ
Format : Matroska
File size : 8.17 GiB
Duration : 1h 22mn
Overall bit rate : 14.2 Mbps

Writing library : libebml v0.7.7 + libmatroska v0.8.1

Video
ID : 1
Format : AVC
Format/Info : Advanced Video Codec
Format profile : High@L4.1
Format settings, CABAC : Yes
Format settings, ReFrames : 4 frames
Codec ID : V_MPEG4/ISO/AVC
Duration : 1h 22mn
Bit rate : 12.3 Mbps
Width : 1 920 pixels
Height : 1 080 pixels
Display aspect ratio : 16:9
Frame rate : 25.000 fps
Color space : YUV
Chroma subsampling : 4:2:0
Bit depth : 8 bits
Scan type : Progressive
Bits/(Pixel*Frame) : 0.237
Stream size : 6.88 GiB (84%)
Writing library : x264 core 65 r1047 f773bf0
Encoding settings : cabac=1 / ref=4 / deblock=1:0:0 / analyse=0x3:0x133 / me=umh / subme=7 / psy_rd=1.0:0.0 / mixed_ref=1 / me_range=16 / chroma_me=1 / trellis=1 / 8x8dct=1 / cqm=0 / deadzone=21,11 / chroma_qp_offset=-2 / threads=6 / nr=0 / decimate=1 / mbaff=0 / bframes=3 / b_pyramid=1 / b_adapt=1 / b_bias=0 / direct=1 / wpredb=1 / keyint=250 / keyint_min=25 / scenecut=40(pre) / rc=2pass / bitrate=12278 / ratetol=1.0 / qcomp=0.60 / qpmin=10 / qpmax=51 / qpstep=4 / cplxblur=20.0 / qblur=0.5 / ip_ratio=1.40 / pb_ratio=1.30 / aq=1:1.00
Language : English

Audio #1
ID : 2
Format : AC-3
Format/Info : Audio Coding 3
Mode extension : CM (complete main)
Codec ID : A_AC3
Duration : 1h 22mn
Bit rate mode : Constant
Bit rate : 448 Kbps
Channel(s) : 6 channels
Channel positions : Front: L C R, Side: L R, LFE
Sampling rate : 48.0 KHz
Bit depth : 16 bits
Compression mode : Lossy
Stream size : 264 MiB (3%)
Language : Czech

Audio #2
ID : 3
Format : DTS
Format/Info : Digital Theater Systems
Codec ID : A_DTS
Duration : 1h 22mn
Bit rate mode : Constant
Bit rate : 1 510 Kbps
Channel(s) : 6 channels
Channel positions : Front: L C R, Side: L R, LFE
Sampling rate : 48.0 KHz
Bit depth : 16 bits
Compression mode : Lossy
Stream size : 891 MiB (11%)
Language : English

Text
ID : 4
Format : UTF-8
Codec ID : S_TEXT/UTF8
Codec ID/Info : UTF-8 Plain Text
Language : Czech



Obrázek
Obrázek
   Kód: [Zkontroluj linky]
Prohlížet odkazy mohou jen přihlášení uživatelé! Přihlašte se, pokud nemáte svůj uživatelský účet, můžete se zdarma registrovat - zabere to jen pár minut.


Obrázek
Obrázek
   Kód: [Zkontroluj linky]
Prohlížet odkazy mohou jen přihlášení uživatelé! Přihlašte se, pokud nemáte svůj uživatelský účet, můžete se zdarma registrovat - zabere to jen pár minut.